#TITLE:Herb Theory;
#SUBTITLE:;
#ARTIST:Jay Chou;
#TITLETRANSLIT:Herb Theory;
#SUBTITLETRANSLIT:;
#ARTISTTRANSLIT:Chau Kiet Luan;
#CREDIT:;
#BANNER:Herb Theory-bn.png;
#BACKGROUND:Herb Theory-bg.png;
#LYRICSPATH:;
#CDTITLE:pm4cd.png;
#MUSIC:Herb Theory.mp3;
#OFFSET:0.040;
#SAMPLESTART:47.751;
#SAMPLELENGTH:20.000;
#SELECTABLE:YES;
#BPMS:0.000=100.890;
#STOPS:;
#BGCHANGES:;
// cache tags:
#FIRSTBEAT:16.250;
#LASTBEAT:348.000;
#SONGFILENAME:Songs/Music V.I.P ^_^/Herb Theory/Herb Theory.sm;
#HASMUSIC:1;
#HASBANNER:1;
#MUSICLENGTH:209.972;
// end cache tags

//---------------dance-single - ----------------
#NOTES:
     dance-single:
     :
     Hard:
     10:
     0.755,0.870,1.000,0.029,1.000,814.000,286.000,6.000,0.000,4.000:
0000
0000
0000
0000
,
0000
0000
0000
0000
,
0000
0000
0000
0000
,
0000
0000
0000
0000
,
0000
1000
0000
0100
0010
1001
0000
0100
0000
0001
0010
0100
0000
1100
0000
0000
,
0010
0100
0000
0001
0010
0101
0000
1000
0000
0010
0100
0001
0000
1010
0000
0000
,
0001
0010
0000
1000
0100
1010
0000
0010
0000
0100
0010
0001
0000
1100
0000
0000
,
0010
0001
0000
1000
0100
1001
0000
0010
0000
1000
0100
1000
0000
0011
0100
1000
,
0010
0001
0000
1100
0011
1100
0000
0001
0000
1010
0101
1010
0000
0001
0000
0000
,
1000
0100
0000
0011
0110
1001
0000
0010
0000
1100
0011
1100
0000
0010
0000
0000
,
0001
1000
0000
0110
1001
0110
0000
0001
0000
0101
1010
0101
0000
0010
0000
0000
,
1000
0100
0000
0011
0110
1100
0000
0001
0000
1000
0100
0010
0001
1000
0100
0010
,
0001
1000
0000
0100
0000
0011
0000
0100
0000
0010
0000
1000
0000
0101
0000
0010
,
0000
1000
0000
0100
0010
0001
1000
0100
0001
0010
0100
0010
1000
0100
0000
0001
,
0000
1000
0000
0010
0100
0001
0010
1000
0100
0001
0010
1000
0100
0001
0000
1000
,
0000
0010
0000
0100
0010
0001
1000
0100
0010
0001
0100
0010
0100
1000
0000
0010
,
0000
1000
0000
0100
0000
1010
0000
0001
0000
0100
0000
0010
0000
1100
0000
0001
,
0000
0100
0000
0010
0000
0101
0000
0010
0000
0100
0000
1000
0000
0110
0000
0001
,
0000
1000
0000
0010
0000
0101
0000
0010
0000
1000
0000
0100
0000
0011
0000
0100
,
0000
0001
0000
0010
0000
1001
0000
0100
0000
1001
1001
0110
0110
1001
1001
0010
,
0100
1011
0000
0100
1000
0110
0000
0001
0000
0100
0010
1000
0000
0101
0000
0000
,
0010
0100
0000
0001
0010
1100
0000
0010
0000
1000
0100
1000
0000
0101
0000
0000
,
0100
1000
0000
0010
0100
0011
0000
1000
0000
0010
0100
1000
0000
0011
0000
0000
,
1000
0100
0000
0001
0010
0101
0000
1000
0000
0010
0001
0100
0000
1010
0000
0000
,
0001
0010
0000
1000
0100
1001
0000
0010
0000
0100
0010
0001
0000
1100
0000
0000
,
0001
0100
0000
0010
0100
1001
0000
0010
0000
1000
0100
0010
0000
0101
0000
0000
,
1000
0001
0000
0100
0010
0101
0000
0010
0000
1000
0100
0010
0000
1100
0000
0000
,
0010
0001
0000
0010
0100
1001
0000
0100
0000
0011
1100
0011
1100
0011
1100
0011
,
1100
0111
0000
1000
0000
0100
0010
0000
0001
0010
0000
1000
0000
0100
0001
0000
,
0010
1000
0000
0100
0000
0001
0010
0000
1000
0100
0000
0001
0000
1000
0010
0000
,
0100
0001
0000
0010
0000
1000
0100
0000
0001
0010
0000
1000
0000
0010
0001
0000
,
1000
0100
0000
0010
0000
0001
0010
0000
1000
0100
0000
0001
0010
0001
0000
1100
,
0110
0001
0000
1000
0000
0110
0000
0001
0000
0010
0000
0100
0000
1010
0000
0100
,
0000
0010
0000
0001
0000
1010
0000
0100
0000
0010
0000
0001
0000
0110
0000
1000
,
0000
0100
0000
0010
0000
1100
0000
0001
0000
0100
0000
0010
0000
1001
0000
0100
,
0000
0010
0000
0001
0000
0110
0000
1000
0000
0100
0000
0010
0000
0101
0000
0010
,
0000
2002
0000
0000
0000
0000
0000
0000
0000
0000
0000
0000
0000
0000
0000
3003
,
0000
0100
0010
0001
0000
1100
0000
0010
0000
0100
0000
0001
0010
0101
0010
1100
,
0001
0010
1000
0100
0010
1001
0100
0010
0001
0010
0100
1000
0000
0011
0000
1000
,
0000
0010
0000
0001
0010
1100
0001
0010
0100
0010
0100
1000
0100
0011
0000
0100
,
0000
1000
0000
0100
0010
1001
0010
0100
0001
0010
0100
1000
0100
0011
0100
1000
,
0000
0010
0000
0100
0000
0011
0000
1000
0000
0101
0000
0010
0000
1100
0000
0010
,
0000
0100
0000
0001
0000
1010
0000
0100
0000
0001
0000
0010
0000
0101
0000
0010
,
0000
1000
0000
0010
0000
0101
0000
0010
0000
1000
0000
0100
0000
0011
0000
0100
,
0000
0010
0100
0010
0001
1100
0010
0100
0010
0001
0010
1000
0100
0011
0100
0010
,
0000
1000
0100
0010
0001
1000
0000
0001
0010
0100
1000
0001
0000
0110
0000
1000
,
0000
0011
1100
0011
1100
0011
0000
1100
0011
1100
0011
1100
0000
0010
0000
0001
,
0000
1000
0100
0001
0010
1100
0000
0001
0000
0010
0100
1000
0001
1100
0000
0001
,
0000
0100
0010
1000
0100
0011
0000
1000
0000
0110
1001
1001
0110
1001
0110
0110
,
1001
0111
0000
0010
0100
0011
0000
1000
0000
0010
0100
0010
0000
0101
0000
0000
,
1000
0100
0000
0010
0100
1010
0000
0001
0000
0100
0010
0001
0000
1100
0000
0000
,
0001
0100
0000
0001
0010
1100
0000
0001
0000
1000
0100
0010
0000
0101
0000
0000
,
0010
1000
0000
0100
0001
0110
0000
1000
0000
0001
0100
1000
0000
0011
0000
0000
,
1000
0010
0000
0100
0010
1001
0000
0010
0000
0001
0010
0001
0000
1100
0000
0000
,
0001
0010
0000
1000
0100
0011
0000
1000
0000
0010
0100
1000
0000
0011
0000
0000
,
0100
0010
0000
1000
0100
0011
0000
0100
0000
0001
0010
0100
0000
1010
0000
0000
,
0010
1000
0000
0100
0010
0101
0000
1000
0000
0010
0001
0010
0100
0010
0100
1000
,
0001
2000
0000
0000
0000
0000
0000
0000
0000
3200
0000
0000
0000
0000
0000
0000
,
0000
0320
0000
0000
0000
0000
0000
0000
0000
0032
0000
0000
0000
0000
0000
0000
,
0000
1113
0000
0011
1100
0011
0000
1100
0000
1100
0011
1100
0000
0011
0000
0000
,
1100
0011
0000
1100
0011
1100
0000
0011
0000
0011
1100
0011
0000
1100
0000
0000
,
1001
0110
0000
1001
0110
1001
0000
0011
0000
1010
0101
1010
0000
0110
0000
0000
,
1010
0101
0000
1010
0101
1010
0000
1001
0000
0110
1001
0110
0000
1100
0000
0000
,
0011
1100
0000
0110
0110
0110
0000
0011
0000
1100
1100
1100
0000
0101
0000
0000
,
1010
0101
0000
1010
0101
1010
0000
0110
0000
1001
1001
1001
0000
0110
0000
0000
,
0011
1100
0000
0011
0011
0011
0000
1100
0000
0110
1001
0110
0000
1010
0000
0000
,
0101
1010
0000
1100
0011
1100
0000
0101
0000
1100
0011
1100
0011
1100
0011
1100
,
0011
1000
0000
0100
0000
0011
0000
0100
0000
0001
0000
1000
0000
0110
0000
0001
,
0000
1000
0000
0001
0000
1010
0000
0100
0000
0010
0000
0100
0000
0011
0000
1000
,
0000
0010
0000
0100
0000
0011
0000
1000
0000
0010
0000
0100
0000
1010
0000
0001
,
0000
0100
0000
1000
0000
0101
0000
0010
0000
0100
0000
1000
0000
0011
0000
0100
,
0000
1000
0000
0100
0000
0011
0000
0100
0000
0001
0000
0010
0000
1001
0000
0100
,
0000
0010
0000
1000
0000
0101
0000
0010
0000
1000
0000
0100
0000
1010
0000
0100
,
0000
0001
0000
0010
0000
1001
0000
0100
0000
0010
0000
1000
0000
0101
0000
0010
,
0000
1000
0000
0100
0000
1010
0000
0100
0000
0010
0001
0010
1000
0100
0001
0010
,
1000
0011
0000
0001
0000
0100
0000
0010
0000
0000
0000
0100
0000
0010
0000
1000
,
0000
0001
0000
0100
0000
0010
0000
1000
0000
0000
0010
0000
0100
0000
0001
0000
,
1000
0100
0001
0010
0000
0010
0100
0001
,
0010
0000
0100
0000
0010
0000
0100
0000
0000
1000
0000
0110
0000
0011
0011
1100
,
0000
0101
1010
0001
0100
0010
0001
0000
1100
0000
0110
1001
0000
0000
1100
0000
,
1000
0110
0011
0100
0010
0001
0000
0000
0101
0000
0011
0000
1100
0000
1100
0000
,
0101
1010
0100
1000
0001
0010
0000
1100
0000
0110
1001
0000
0000
0011
0000
0000
,
1100
0110
0001
0010
0100
0000
1100
0000
0110
0000
0101
0000
0101
0000
0000
1001
,
0110
1000
0100
0001
0010
0000
1100
0000
0110
0011
0000
0000
0101
0000
0110
0011
,
0000
1000
0100
0010
0000
0110
0000
0011
0000
1100
0000
1100
0000
0000
0101
1010
,
0100
1000
0010
0000
1001
0000
0101
1010
0000
0000
0101
0000
0000
1100
0110
1000
,
0001
0010
1000
0000
1100
0000
1001
0000
1010
0000
0100
0000
1000
0000
0010
0000
,
0001
0000
0000
0000
;
